Sunday, March 22, 2015 | In Vino Veritas 4 - 酒遍全世界4 - Episode 04 | Angrezi Mein Kehte Hain (2018) Hindi 1CD Pre x264 AAC - Downloadhub

Deadpool 2 2018 720p HDTS x264 Dual Audio [Hindi - English] [MW]

  • Category Movies
  • Type Dubs/Dual Audio
  • Language Hindi
  • Total size 876.9 MB
  • Uploaded By moviezworldz
  • Downloads 21
  • Last checked 3 minutes ago
  • Date uploaded 3 minutes ago
  • Seeders 0
  • Leechers 0

Infohash : 837298C198C82D87150D5092EEB283449F0F60AE





General
Format : Matroska
Format version : Version 4 / Version 2
File size : 877 MiB
Duration : 1 h 49 min
Overall bit rate : 1 120 kb/s

Video
ID : 1
Format : AVC
Format/Info : Advanced Video Codec
Format profile : [email protected]
Format settings : CABAC / 4 Ref Frames
Format settings, CABAC : Yes
Format settings, RefFrames : 4 frames
Codec ID : V_MPEG4/ISO/AVC
Duration : 1 h 49 min
Bit rate : 900 kb/s
Width : 1 280 pixels
Height : 510 pixels
Display aspect ratio : 2.510
Frame rate mode : Constant
Frame rate : 29.970 (30000/1001) FPS
Color space : YUV
Chroma subsampling : 4:2:0
Bit depth : 8 bits
Scan type : Progressive
Bits/(Pixel*Frame) : 0.046
Stream size : 700 MiB (80%)
Writing library : x264 core 155 r2893 b00bcaf
Default : Yes
Forced : No

Audio #1
ID : 2
Format : AAC
Format/Info : Advanced Audio Codec
Format profile : LC
Codec ID : A_AAC-2
Duration : 1 h 49 min
Bit rate : 128 kb/s
Channel(s) : 2 channels
Channel positions : Front: L R
Sampling rate : 48.0 kHz
Frame rate : 46.875 FPS (1024 SPF)
Compression mode : Lossy
Stream size : 100 MiB (11%)
Language : Hindi
Default : No
Forced : No

Audio #2
ID : 3
Format : AAC
Format/Info : Advanced Audio Codec
Format profile : HE-AAC / LC
Format settings : Explicit
Codec ID : A_AAC-2
Duration : 1 h 49 min
Bit rate : 96.0 kb/s
Channel(s) : 2 channels
Channel positions : Front: L R
Sampling rate : 48.0 kHz / 24.0 kHz
Frame rate : 23.438 FPS (1024 SPF)
Compression mode : Lossy
Stream size : 74.1 MiB (8%)
Language : English
Default : Yes
Forced : No













Files:

Deadpool 2 2018 720p HDTS x264 Dual Audio [Hindi - English] [MW]
  • Deadpool 2 2018 720p HDTS x264 Dual Audio [Hindi - English] [MW].mkv (876.9 MB)

There are currently no comments. Feel free to leave one :)

Code:

  • udp://tracker.coppersurfer.tk:6969/announce
  • udp://tracker.coppersurfer.tk:80/announce
  • udp://tracker.ilibr.org:6969/announce
  • udp://tracker.ilibr.org:80/announce
  • udp://tracker.opentrackr.org:1337/announce
  • udp://zer0day.to:1337/announce
  • udp://tracker.zer0day.to:1337/announce
  • udp://p4p.arenabg.com:1337/announce
  • udp://p4p.arenabg.ch:1337/announce
  • udp://tracker.leechers-paradise.org:6969/announce
  • udp://explodie.org:6969/announce
  • udp://9.rarbg.to:2710/announce
  • udp://eddie4.nl:6969/announce
  • udp://9.rarbg.to:2770/announce