ONCE UPON A TIME | Download | Everything Sucks HDTV

Deadpool.2.2018.720p.TS.ENG.X264.1xbit

  • Category Movies
  • Type DVD
  • Language English
  • Total size 2.4 GB
  • Uploaded By wargoo
  • Downloads 413
  • Last checked 31 minutes ago
  • Date uploaded 10 hours ago
  • Seeders 25
  • Leechers 19

Deadpool 2

ActionComedyScience Fiction

Wisecracking mercenary Deadpool battles the evil and powerful Cable and other bad guys to save a boy's life.

Infohash : 4AAE44A1243D49B441DFF3EEEAFB03DF13DBB876



Deadpool.2.2018.720p.TS.ENG.X264.1xbit

Language: English
Source: 1xBit

This is The actual Source....










Code:

Format                      : MPEG-4
File size                   : 2.44 GiB
Duration                    : 1 h 49 min
Overall bit rate mode       : Variable
Overall bit rate            : 3 187 kb/s
Video
ID                          : 2
Format                      : AVC
Format/Info                 : Advanced Video Codec
Format profile              : [email protected]
Format settings             : CABAC / 6 Ref Frames
Format settings, CABAC      : Yes
Format settings, ReFrames   : 6 frames
Codec ID                    : avc1
Codec ID/Info               : Advanced Video Coding
Duration                    : 1 h 49 min
Bit rate mode               : Variable
Bit rate                    : 2 968 kb/s
Maximum bit rate            : 18.0 Mb/s
Width                       : 1 280 pixels
Height                      : 516 pixels
Display aspect ratio        : 2.481
Frame rate mode             : Constant
Frame rate                  : 29.970 (30000/1001) FPS
Standard                    : Component
Color space                 : YUV
Chroma subsampling          : 4:2:0
Bit depth                   : 8 bits
Scan type                   : Progressive
Bits/(Pixel*Frame)          : 0.150
Stream size                 : 2.26 GiB (93%)


Audio
ID                          : 1
Format                      : AC-3
Format/Info                 : Audio Coding 3
Codec ID                    : ac-3
Duration                    : 1 h 49 min
Bit rate mode               : Constant
Bit rate                    : 224 kb/s
Channel(s)                  : 2 channels
Channel positions           : Front: L R
Sampling rate               : 48.0 kHz
Frame rate                  : 31.250 FPS (1536 SPF)
Bit depth                   : 16 bits
Compression mode            : Lossy
Stream size                 : 175 MiB (7%)
Service kind                : Complete Main
Default                     : Yes
Alternate group             : 1
Encoded date                : UTC 2018-05-16 21:11:26
Tagged date                 : UTC 2018-05-16 21:11:26


Files:

Deadpool.2.2018.720p.TS.ENG.X264.1xbit
  • WwW.SeeHD.PL_Deadpool.2.2018.720p.TS.ENG.X264.1xbit.mp4 (2.4 GB)
  • Code.txt (3.4 KB)
  • WwW.SeeHD.PL.txt (0.1 KB)

Comments

Code:

  • udp://tracker.leechers-paradise.org:6969/announce
  • udp://tracker.coppersurfer.tk:6969/announce
  • udp://tracker.opentrackr.org:1337/announce
  • udp://tracker.zer0day.to:1337/announce
  • udp://eddie4.nl:6969/announce