Movies 2015 | Murenase! Shiiton Gakuen | "Hawaii Five-0" [S07E17] HDTV.x264-LOL

Mortal Kombat (1995) (1080p BluRay x265 HEVC 10bit AAC 5.1 Vyndro...

  • Category TV
  • Type HEVC/x265
  • Language English
  • Total size 3.2 GB
  • Uploaded By Vyndros
  • Downloads 1
  • Last checked 17 minutes ago
  • Date uploaded 30 minutes ago
  • Seeders 1
  • Leechers 2

Infohash : CE37120A9C24F147B6D4A2776D8F713CFB841399








Media Information

Code:

General
Format : Matroska
Format version : Version 4 / Version 2
File size : 3.20 GiB
Duration : 1 h 41 min
Overall bit rate : 4 513 kb/s
Encoded date : UTC 2018-05-14 18:01:06
Writing application : mkvmerge v20.0.0 ('I Am The Sun') 64-bit
Writing library : libebml v1.3.5 + libmatroska v1.4.8
Writing frontend : StaxRip v1.7.0.6

Video
ID : 1
Format : HEVC
Format/Info : High Efficiency Video Coding
Format profile : Main [email protected]@Main
Codec ID : V_MPEGH/ISO/HEVC
Duration : 1 h 41 min
Bit rate : 4 055 kb/s
Width : 1 920 pixels
Height : 1 080 pixels
Display aspect ratio : 16:9
Frame rate mode : Constant
Frame rate : 23.976 (24000/1001) FPS
Color space : YUV
Chroma subsampling : 4:2:0
Bit depth : 10 bits
Bits/(Pixel*Frame) : 0.082
Stream size : 2.87 GiB (90%)
Writing library : x265 2.7+346-69aafa6d70ad:[Windows][GCC 7.3.0][64 bit] 10bit
Encoding settings : cpuid=1111039 / frame-threads=3 / numa-pools=12 / wpp / no-pmode / no-pme / no-psnr / ssim / log-level=2 / input-csp=1 / input-res=1920x1080 / interlace=0 / total-frames=145897 / level-idc=0 / high-tier=1 / uhd-bd=0 / ref=3 / no-allow-non-conformance / no-repeat-headers / annexb / no-aud / no-hrd / info / hash=0 / no-temporal-layers / open-gop / min-keyint=23 / keyint=250 / gop-lookahead=0 / bframes=8 / b-adapt=2 / b-pyramid / bframe-bias=0 / rc-lookahead=50 / lookahead-slices=6 / scenecut=40 / radl=0 / no-intra-refresh / ctu=64 / min-cu-size=8 / no-rect / no-amp / max-tu-size=32 / tu-inter-depth=1 / tu-intra-depth=1 / limit-tu=0 / rdoq-level=0 / dynamic-rd=0.00 / no-ssim-rd / signhide / no-tskip / nr-intra=0 / nr-inter=0 / no-constrained-intra / no-strong-intra-smoothing / max-merge=3 / limit-refs=3 / no-limit-modes / me=3 / subme=3 / merange=57 / temporal-mvp / weightp / no-weightb / no-analyze-src-pics / deblock=0:0 / sao / no-sao-non-deblock / rd=3 / no-early-skip / no-rskip / no-fast-intra / no-tskip-fast / no-cu-lossless / no-b-intra / no-splitrd-skip / rdpenalty=0 / psy-rd=2.00 / psy-rdoq=0.00 / no-rd-refine / no-lossless / cbqpoffs=0 / crqpoffs=0 / rc=crf / crf=18.0 / qcomp=0.60 / qpstep=4 / stats-write=0 / stats-read=0 / ipratio=1.40 / pbratio=1.30 / aq-mode=3 / aq-strength=0.80 / cutree / zone-count=0 / no-strict-cbr / qg-size=32 / no-rc-grain / qpmax=69 / qpmin=0 / no-const-vbv / sar=0 / overscan=0 / videoformat=5 / range=0 / colorprim=2 / transfer=2 / colormatrix=2 / chromaloc=0 / display-window=0 / max-cll=0,0 / min-luma=0 / max-luma=1023 / log2-max-poc-lsb=8 / vui-timing-info / vui-hrd-info / slices=1 / no-opt-qp-pps / no-opt-ref-list-length-pps / no-multi-pass-opt-rps / scenecut-bias=0.05 / no-opt-cu-delta-qp / no-aq-motion / no-hdr / no-hdr-opt / no-dhdr10-opt / no-idr-recovery-sei / analysis-reuse-level=5 / scale-factor=0 / refine-intra=0 / refine-inter=0 / refine-mv=0 / no-limit-sao / ctu-info=0 / no-lowpass-dct / refine-mv-type=0 / copy-pic=1 / max-ausize-factor=1.0 / no-dynamic-refine / no-single-sei
Default : Yes
Forced : No

Audio
ID : 2
Format : AAC
Format/Info : Advanced Audio Codec
Format profile : LC
Codec ID : A_AAC
Duration : 1 h 41 min
Bit rate : 449 kb/s
Channel(s) : 6 channels
Channel positions : Front: L C R, Side: L R, LFE
Sampling rate : 48.0 kHz
Frame rate : 46.875 FPS (1024 spf)
Compression mode : Lossy
Stream size : 325 MiB (10%)
Language : English
Default : Yes
Forced : Yes

Subtitle
ID : 3
Format : PGS
Muxing mode : zlib
Codec ID : S_HDMV/PGS
Codec ID/Info : Picture based subtitle format used on BDs/HD-DVDs
Duration : 1 h 40 min
Bit rate : 17.5 kb/s
Count of elements : 1554
Stream size : 12.6 MiB (0%)
Language : English
Default : No
Forced : No

Menu
00:00:00.000 : en:Main Title
00:00:50.133 : en:"Your Brother's Soul is Mine"
00:02:39.284 : en:Sonya Blade
00:04:50.415 : en:Johny Cage
00:07:56.893 : en:The Temple of Light, China
00:12:10.355 : en:Chai Wan Bay, Hong Kong
00:15:35.935 : en:Scorpian and Sub-Zero
00:18:15.219 : en:The Chosen One
00:21:30.372 : en:Arrival on the Island
00:25:00.833 : en:A Taste of Things to Come
00:29:01.031 : en:Kano and the Prince
00:36:24.557 : en:Dumb and Ugly
00:39:41.671 : en:The Tournament
00:42:41.851 : en:Something for Sonya
00:45:38.527 : en:Johnny's Turn
00:50:59.473 : en:Tip from the Princess
00:52:52.252 : en:The Element Which Brings Life
00:56:08.282 : en:Goro's Fury
01:00:15.028 : en:The Fear Inside
01:05:48.653 : en:Johnny vs. Goro
01:09:06.017 : en:The Abduction of Sonya
01:10:51.956 : en:Into Outworld
01:17:09.667 : en:The Black Tower
01:20:50.471 : en:Liu vs. Shang Tsung
01:23:53.987 : en:"Face Your Worst Fear"
01:30:26.630 : en:The Emperor
01:31:34.864 : en:End Credits



Source Information

Code:

Release:
BluRay Remux

Files:

Mortal Kombat (1995) (1080p BluRay x265 HEVC 10bit AAC 5.1 Vyndros)
  • Mortal Kombat [1995] 1080p 10bit BluRay AAC5.1 HEVC-Vyndros.mkv (3.2 GB)

There are currently no comments. Feel free to leave one :)

Code:

  • udp://tracker.coppersurfer.tk:6969/announce
  • udp://tracker.zer0day.to:1337/announce
  • udp://tracker.opentrackr.org:1337/announce
  • udp://tracker.torrent.eu.org:451/announce
  • udp://tracker.ilibr.org:6969/announce
  • udp://tracker.leechers-paradise.org:6969/announce
  • udp://p4p.arenabg.com:1337/announce
  • udp://tracker.internetwarriors.net:1337/announce