AllHerLuv 18 02 20 Jill Kassidy And Krissy Lynn Laura Krissy XXX 1080p MP4-WEIRD..
Re: Report Us And Win +1 Reputatio...

Lajja (2016) Hindi Dubbed 720p HDRip x264 AAC [ MovCR]

  • Category Movies
  • Type Dubs/Dual Audio
  • Language Hindi
  • Total size 947.4 MB
  • Uploaded By ictv
  • Downloads 1298
  • Last checked 34 minutes ago
  • Date uploaded 1 day ago
  • Seeders 34
  • Leechers 26

Infohash : 15C66E79C8585897634EA01AF4DF194AF82132A5

Visit www.movcr.com

Lajja (2016) Hindi Dubbed 720p HDRip x264 AAC [ MovCR]

http://www.imdb.com/title/tt5465308/



General
Complete name : [www.MovCR.com] Lajja (2016) Hindi Dubbed 720p HDRip x264 AAC [ MovCR]\www.MovCR.com - Lajja (2016) Hindi Dubbed 720p HDRip x264 AAC [ MovCR].mkv
Format : Matroska
Format version : Version 4 / Version 2
File size : 853 MiB
Duration : 2 h 17 min
Overall bit rate : 866 kb/s
Movie name : www.MovCR.com
Encoded date : UTC 2018-04-16 10:48:58
Writing application : mkvmerge v9.5.0 ('Quiet Fire') 64bit
Writing library : libebml v1.3.4 + libmatroska v1.4.5 / IDMmkvlib0.1
Language : und

Video
ID : 1
Format : VP9
Codec ID : V_VP9
Duration : 2 h 17 min
Bit rate : 720 kb/s
Width : 1 280 pixels
Height : 720 pixels
Display aspect ratio : 16:9
Frame rate mode : Constant
Frame rate : 24.000 FPS
Bits/(Pixel*Frame) : 0.033
Stream size : 709 MiB (83%)
Title : www.MovCR.com
Default : Yes
Forced : No

Audio
ID : 2
Format : Opus
Codec ID : A_OPUS
Duration : 2 h 17 min
Bit rate : 143 kb/s
Channel(s) : 2 channels
Channel positions : Front: L R
Sampling rate : 48.0 kHz
Frame rate : 50.000 FPS (960 SPF)
Compression mode : Lossy
Stream size : 141 MiB (17%)
Title : www.MovCR.com
Default : Yes
Forced : No











Files:

[www.MovCR.com] Lajja (2016) Hindi Dubbed 720p HDRip x264 AAC [ MovCR]
  • Sample.mp4 (94.8 MB)
  • www.MovCR.com - Lajja (2016) Hindi Dubbed 720p HDRip x264 AAC [ MovCR].mkv (852.5 MB)
  • www.MovCR.com.txt (0.0 KB)

There are currently no comments. Feel free to leave one :)

Code:

  • udp://tracker.openbittorrent.com:80/announce
  • udp://tracker.opentrackr.org:1337/announce
  • udp://tracker.coppersurfer.tk:6969/announce
  • udp://tracker.open-internet.nl:6969/announce
  • udp://tracker.skyts.net:6969/announce
  • udp://tracker.piratepublic.com:1337/announce
  • udp://tracker.opentrackr.org:1337/announce
  • udp://9.rarbg.to:2710/announce
  • udp://p4p.arenabg.com:1337/announce
  • udp://public.popcorn-tracker.org:6969/announce
  • udp://wambo.club:1337/announce
  • udp://retracker.nts.su:2710/announce
  • udp://packages.crunchbangplusplus.org:6969/announce
  • udp://104.238.198.186:8000/announce
  • http://tracker2.itzmx.com:6961/announce
  • http://tracker.vanitycore.co:6969/announce
  • http://tracker.torrentyorg.pl:80/announce
  • http://tracker.tfile.me:80/announce
  • http://tracker.mg64.net:6881/announce
  • http://tracker.electro-torrent.pl:80/announce
  • http://torrentsmd.me:8080/announce
  • http://share.camoe.cn:8080/announce
  • http://servandroidkino.ru:80/announce
  • http://p4p.arenabg.com:1337/announce
  • http://open.acgtracker.com:1096/announce
  • http://omg.wtftrackr.pw:1337/announce
  • http://mgtracker.org:6969/announce
  • http://bt.dl1234.com:80/announce
  • http://agusiq-torrents.pl:6969/announce
  • http://104.238.198.186:8000/announce